+ ShareSpark.net »  :::: Hollywood Zone » Hollywood Movies (Original Rips) » HEVC / H.265 Releases
|- Thor Ragnarok (2017) (1080p BluRay x265 HEVC 10bit AAC 7.1 Joy) [UTR]


Mastercard 10% Off

Thor Ragnarok (2017) (1080p BluRay x265 HEVC 10bit AAC 7.1 Joy) [UTR]

0 Members and 1 Guest are viewing this topic.

March 02, 2018, 01:37:58 PM
  • Addic7ed
  • Royal Member
  • ****
  • Topic Author
  • Thank You: 512
  • Reputation: 185
  • Activity:
    0%
  • Country: np
  • Posts: 1076
  • Topics: 702
  • Join Date: May 2017
  • #Me
Thor Ragnarok (2017) (1080p BluRay x265 HEVC 10bit AAC 7.1 Joy)


 :plot:
General
Format : Matroska
Format version : Version 4 / Version 2
File size : 1.75 GiB
Duration : 3 h 10 min
Overall bit rate : 1 317 kb/s
Movie name : Thor: Ragnarok
Encoded date : UTC 2018-02-25 22:31:10
Writing application : mkvmerge v21.0.0 ('Tardigrades Will Inherit The Earth') 64-bit
Writing library : libebml v1.3.5 + libmatroska v1.4.8
Cover : Yes
Attachments : cover.jpg
Writing frontend : StaxRip v1.7.0.6

Video
ID : 1
Format : HEVC
Format/Info : High Efficiency Video Coding
Format profile : Main [email protected]@Main
Codec ID : V_MPEGH/ISO/HEVC
Duration : 2 h 10 min
Bit rate : 1 501 kb/s
Width : 1 920 pixels
Height : 800 pixels
Display aspect ratio : 2.40:1
Frame rate mode : Constant
Frame rate : 23.976 (24000/1001) FPS
Color space : YUV
Chroma subsampling : 4:2:0
Bit depth : 10 bits
Bits/(Pixel*Frame) : 0.041
Stream size : 1.37 GiB (78%)
Writing library : x265 2.6+31-3712d13c09bf:[Windows][GCC 7.2.0][64 bit] 10bit
Encoding settings : cpuid=1173503 / frame-threads=4 / numa-pools=16 / wpp / no-pmode / no-pme / no-psnr / ssim / log-level=2 / input-csp=1 / input-res=1920x800 / interlace=0 / total-frames=187749 / level-idc=0 / high-tier=1 / uhd-bd=0 / ref=4 / no-allow-non-conformance / no-repeat-headers / annexb / no-aud / no-hrd / info / hash=0 / no-temporal-layers / open-gop / min-keyint=23 / keyint=250 / gop-lookahead=0 / bframes=8 / b-adapt=2 / b-pyramid / bframe-bias=0 / rc-lookahead=50 / lookahead-slices=4 / scenecut=40 / radl=0 / no-intra-refresh / ctu=64 / min-cu-size=8 / rect / no-amp / max-tu-size=32 / tu-inter-depth=1 / tu-intra-depth=1 / limit-tu=0 / rdoq-level=2 / dynamic-rd=0.00 / ssim-rd / signhide / no-tskip / nr-intra=0 / nr-inter=0 / no-constrained-intra / strong-intra-smoothing / max-merge=3 / limit-refs=3 / limit-modes / me=3 / subme=3 / merange=57 / temporal-mvp / weightp / weightb / analyze-src-pics / deblock=-3:-3 / sao / sao-non-deblock / rd=6 / no-early-skip / rskip / no-fast-intra / no-tskip-fast / no-cu-lossless / b-intra / no-splitrd-skip / rdpenalty=0 / psy-rd=2.60 / psy-rdoq=2.05 / no-rd-refine / no-lossless / cbqpoffs=0 / crqpoffs=0 / rc=abr / bitrate=1500 / qcomp=0.60 / qpstep=4 / stats-write=0 / stats-read=2 / cplxblur=20.0 / qblur=0.5 / ipratio=1.40 / pbratio=1.30 / aq-mode=3 / aq-strength=1.00 / cutree / zone-count=0 / no-strict-cbr / qg-size=32 / no-rc-grain / qpmax=69 / qpmin=0 / no-const-vbv / sar=0 / overscan=0 / videoformat=5 / range=1 / colorprim=2 / transfer=2 / colormatrix=2 / chromaloc=0 / display-window=0 / max-cll=0,0 / min-luma=0 / max-luma=1023 / log2-max-poc-lsb=8 / vui-timing-info / vui-hrd-info / slices=1 / no-opt-qp-pps / no-opt-ref-list-length-pps / multi-pass-opt-rps / scenecut-bias=0.05 / no-opt-cu-delta-qp / no-aq-motion / no-hdr / no-hdr-opt / no-dhdr10-opt / analysis-reuse-level=5 / scale-factor=0 / refine-intra=0 / refine-inter=0 / refine-mv=0 / limit-sao / ctu-info=0 / no-lowpass-dct / refine-mv-type=0 / copy-pic=1
Default : Yes
Forced : No
Color range : Full

Audio #1
ID : 2
Format : AAC
Format/Info : Advanced Audio Codec
Format profile : HE-AAC / LC
Codec ID : A_AAC
Duration : 2 h 10 min
Bit rate : 302 kb/s
Channel(s) : 7 channels
Channel(s)_Original : 8 channels
Channel positions : Front: L C R, Side: L R, Back: L R, LFE
Sampling rate : 48.0 kHz / 24.0 kHz
Frame rate : 23.438 FPS (1024 spf)
Compression mode : Lossy
Delay relative to video : 31 ms
Stream size : 282 MiB (16%)
Language : English
Default : Yes
Forced : No

Audio #2
ID : 3
Format : AAC
Format/Info : Advanced Audio Codec
Format profile : HE-AAC / LC
Codec ID : A_AAC
Duration : 2 h 10 min
Bit rate : 48.0 kb/s
Channel(s) : 2 channels
Channel positions : Front: L R
Sampling rate : 48.0 kHz / 24.0 kHz
Frame rate : 23.438 FPS (1024 spf)
Compression mode : Lossy
Delay relative to video : 31 ms
Stream size : 43.5 MiB (2%)
Title : Commentary by Director Taika Waititi
Language : English
Default : No
Forced : No

Subtitle #1
ID : 4
Format : PGS
Muxing mode : zlib
Codec ID : S_HDMV/PGS
Codec ID/Info : Picture based subtitle format used on BDs/HD-DVDs
Duration : 2 h 10 min
Bit rate : 38.1 kb/s
Count of elements : 4162
Stream size : 35.5 MiB (2%)
Language : English
Default : No
Forced : No

Subtitle #2
ID : 5
Format : VobSub
Muxing mode : zlib
Codec ID : S_VOBSUB
Codec ID/Info : Picture based subtitle format used on DVDs
Duration : 2 h 9 min
Bit rate : 8 283 b/s
Count of elements : 1591
Stream size : 7.67 MiB (0%)
Language : French
Default : No
Forced : No

Subtitle #3
ID : 6
Format : VobSub
Muxing mode : zlib
Codec ID : S_VOBSUB
Codec ID/Info : Picture based subtitle format used on DVDs
Duration : 2 h 9 min
Bit rate : 8 120 b/s
Count of elements : 1572
Stream size : 7.52 MiB (0%)
Language : Portuguese
Default : No
Forced : No

Subtitle #4
ID : 7
Format : VobSub
Muxing mode : zlib
Codec ID : S_VOBSUB
Codec ID/Info : Picture based subtitle format used on DVDs
Duration : 2 h 9 min
Bit rate : 8 464 b/s
Count of elements : 1572
Stream size : 7.84 MiB (0%)
Language : Spanish
Default : No
Forced : No

Subtitle #5
ID : 8
Format : VobSub
Muxing mode : zlib
Codec ID : S_VOBSUB
Codec ID/Info : Picture based subtitle format used on DVDs
Duration : 2 h 10 min
Bit rate : 15.6 kb/s
Count of elements : 2229
Stream size : 14.5 MiB (1%)
Language : English
Default : No
Forced : No

Subtitle #6
ID : 9
Format : VobSub
Muxing mode : zlib
Codec ID : S_VOBSUB
Codec ID/Info : Picture based subtitle format used on DVDs
Duration : 2 h 10 min
Bit rate : 13.5 kb/s
Count of elements : 2162
Stream size : 12.5 MiB (1%)
Language : French
Default : No
Forced : No

Subtitle #7
ID : 10
Format : VobSub
Muxing mode : zlib
Codec ID : S_VOBSUB
Codec ID/Info : Picture based subtitle format used on DVDs
Duration : 2 h 10 min
Bit rate : 14.1 kb/s
Count of elements : 2166
Stream size : 13.1 MiB (1%)
Language : Portuguese
Default : No
Forced : No

Subtitle #8
ID : 11
Format : VobSub
Muxing mode : zlib
Codec ID : S_VOBSUB
Codec ID/Info : Picture based subtitle format used on DVDs
Duration : 2 h 10 min
Bit rate : 14.4 kb/s
Count of elements : 2165
Stream size : 13.4 MiB (1%)
Language : Spanish
Default : No
Forced : No

Subtitle #9
ID : 12
Format : UTF-8
Codec ID : S_TEXT/UTF8
Codec ID/Info : UTF-8 Plain Text
Duration : 2 h 10 min
Bit rate : 69 b/s
Count of elements : 1254
Stream size : 66.2 KiB (0%)
Language : Arabic
Default : No
Forced : No

Subtitle #10
ID : 13
Format : UTF-8
Codec ID : S_TEXT/UTF8
Codec ID/Info : UTF-8 Plain Text
Duration : 2 h 9 min
Bit rate : 43 b/s
Count of elements : 1121
Stream size : 41.0 KiB (0%)
Language : Danish
Default : No
Forced : No

Subtitle #11
ID : 14
Format : UTF-8
Codec ID : S_TEXT/UTF8
Codec ID/Info : UTF-8 Plain Text
Duration : 2 h 9 min
Bit rate : 45 b/s
Count of elements : 967
Stream size : 42.9 KiB (0%)
Language : Dutch
Default : No
Forced : No

Subtitle #12
ID : 15
Format : UTF-8
Codec ID : S_TEXT/UTF8
Codec ID/Info : UTF-8 Plain Text
Duration : 2 h 10 min
Bit rate : 83 b/s
Count of elements : 1576
Stream size : 79.8 KiB (0%)
Language : Persian
Default : No
Forced : No

Subtitle #13
ID : 16
Format : UTF-8
Codec ID : S_TEXT/UTF8
Codec ID/Info : UTF-8 Plain Text
Duration : 2 h 9 min
Bit rate : 46 b/s
Count of elements : 1567
Stream size : 44.5 KiB (0%)
Language : Finnish
Default : No
Forced : No

Subtitle #14
ID : 17
Format : UTF-8
Codec ID : S_TEXT/UTF8
Codec ID/Info : UTF-8 Plain Text
Duration : 2 h 9 min
Bit rate : 52 b/s
Count of elements : 1564
Stream size : 49.7 KiB (0%)
Language : German
Default : No
Forced : No

Subtitle #15
ID : 18
Format : UTF-8
Codec ID : S_TEXT/UTF8
Codec ID/Info : UTF-8 Plain Text
Duration : 2 h 3 min
Bit rate : 93 b/s
Count of elements : 1382
Stream size : 84.3 KiB (0%)
Language : Greek
Default : No
Forced : No

Subtitle #16
ID : 19
Format : UTF-8
Codec ID : S_TEXT/UTF8
Codec ID/Info : UTF-8 Plain Text
Duration : 2 h 9 min
Bit rate : 69 b/s
Count of elements : 1570
Stream size : 65.8 KiB (0%)
Language : Hebrew
Default : No
Forced : No

Subtitle #17
ID : 20
Format : UTF-8
Codec ID : S_TEXT/UTF8
Codec ID/Info : UTF-8 Plain Text
Duration : 2 h 10 min
Bit rate : 103 b/s
Count of elements : 1764
Stream size : 99.2 KiB (0%)
Language : Malay
Default : No
Forced : No

Subtitle #18
ID : 21
Format : UTF-8
Codec ID : S_TEXT/UTF8
Codec ID/Info : UTF-8 Plain Text
Duration : 2 h 9 min
Bit rate : 44 b/s
Count of elements : 1566
Stream size : 41.8 KiB (0%)
Language : Norwegian
Default : No
Forced : No

Subtitle #19
ID : 22
Format : UTF-8
Codec ID : S_TEXT/UTF8
Codec ID/Info : UTF-8 Plain Text
Duration : 2 h 9 min
Bit rate : 47 b/s
Count of elements : 1409
Stream size : 45.2 KiB (0%)
Language : Portuguese
Default : No
Forced : No

Subtitle #20
ID : 23
Format : UTF-8
Codec ID : S_TEXT/UTF8
Codec ID/Info : UTF-8 Plain Text
Duration : 2 h 9 min
Bit rate : 43 b/s
Count of elements : 1056
Stream size : 41.2 KiB (0%)
Language : Swedish
Default : No
Forced : No

Subtitle #21
ID : 24
Format : UTF-8
Codec ID : S_TEXT/UTF8
Codec ID/Info : UTF-8 Plain Text
Duration : 2 h 10 min
Bit rate : 102 b/s
Count of elements : 1571
Stream size : 98.0 KiB (0%)
Language : Thai
Default : No
Forced : No

Subtitle #22
ID : 25
Format : UTF-8
Codec ID : S_TEXT/UTF8
Codec ID/Info : UTF-8 Plain Text
Duration : 2 h 9 min
Bit rate : 51 b/s
Count of elements : 1360
Stream size : 49.1 KiB (0%)
Language : Turkish
Default : No
Forced : No

Subtitle #23
ID : 26
Format : UTF-8
Codec ID : S_TEXT/UTF8
Codec ID/Info : UTF-8 Plain Text
Duration : 3 h 10 min
Bit rate : 48 b/s
Count of elements : 1605
Stream size : 67.3 KiB (0%)
Language : Vietnamese
Default : No
Forced : No

Menu
00:00:00.000 : en:The Great Prophecy
00:06:20.672 : en:The Tragedy Of Loki Of Asgard
00:14:11.642 : en:A Worthy Inclusion
00:22:12.873 : en:The Goddess Of Death
00:26:43.060 : en:"Are You A Fighter, Or Are You Food?"
00:31:29.721 : en:Heiress Apparent
00:35:03.935 : en:The Grandmaster
00:42:49.734 : en:The Eternal Flame
00:48:31.534 : en:The Contest Of Champions
00:59:38.784 : en:The Resistance
01:07:57.907 : en:Hotheaded Fools
01:17:30.604 : en:The Revengers
01:27:25.323 : en:"The Revolution Has Begun"
01:36:08.721 : en:Ready For War
01:42:35.733 : en:"Asgard Is Not A Place"
01:49:19.887 : en:"What Were You The God Of Again?"
01:54:57.599 : en:Ragnarok
02:00:37.522 : en:End Credits


 :ss: :ss:





 :download: :download:







Share this topic on FacebookShare this topic on GoogleShare this topic on MySpaceShare this topic on TwitterShare this topic on Yahoo




Tags: new 
 

Related Topics

  Subject / Started by Replies Last post
1 Replies
596 Views
Last post September 08, 2017, 07:34:29 PM
by ARAhmed
0 Replies
790 Views
Last post September 12, 2017, 08:41:43 PM
by Nightfire
0 Replies
555 Views
Last post September 20, 2017, 03:14:01 PM
by ♥[--K4Krish--]♥
0 Replies
535 Views
Last post October 03, 2017, 09:55:27 PM
by ♥[--K4Krish--]♥
0 Replies
869 Views
Last post January 22, 2018, 11:34:47 AM
by UnikAaYush




Back to top