+ ShareSpark.net »  :::: Hollywood Zone » Hollywood Movies (Original Rips) » HEVC / H.265 Releases
|- RÉQÚÉST ßlÚ®ÁY-ÐÍSK™ / HÉVÇ (x265) MÓVÍÉS


100% Bill Offer
  • RÉQÚÉST ßlÚ®ÁY-ÐÍSK™ / HÉVÇ (x265) MÓVÍÉS 5 1
Currently:  

RÉQÚÉST ßlÚ®ÁY-ÐÍSK™ / HÉVÇ (x265) MÓVÍÉS

0 Members and 1 Guest are viewing this topic.

May 27, 2018, 12:53:32 PM
ú çáñ réqúést áñy móvíés íñ x265

í.é American Sniper 2014 (1080p x265 10bit Tigole).mkv

Share this topic on FacebookShare this topic on GoogleShare this topic on MySpaceShare this topic on TwitterShare this topic on Yahoo



Thanks given by:


May 27, 2018, 01:46:50 PM
Reply #1
MÁ®VÉL'S MÓVÍÉS ÇÓLLÉÇTÍÓÑ

Ant-Man 2015 (1080p x265 10bit Tigole).mkv



Avengers 2012 (1080p Bluray x265 10bit AAC 5.1 Tigole)



Avengers Age of Ultron 2015 (1080p Bluray x265 10bit AAC 5.1 Tigole)



Captain America - The First Avenger 2011 (1080p Bluray x265 HEVC 10bit AAC 5.1 Tigole)



Captain America - The Winter Soldier 2014 (1080p Bluray x265 HEVC 10bit AAC 5.1 Tigole)



Captain America: Civil War 2016 (1080p BluRay x265 10bit AAC 7.1-Tigole)



Deadpool (2016) 2160p 4K UltraHD BluRay (x265 HEVC 10bit) 2CH AC3 [Zeus]



Deadpool (2016) [2160p DD5.1 - 2.0 x265 Phun Psyz] .mkv



Fantastic Four 2005 (1080p Bluray x265 10bit Tigole).mkv



Incredible Hulk 2008 (1080p Bluray x265 HEVC 10bit AAC Tigole)



Iron Man 2008 (1080p Bluray x265 10bit Tigole) .mkv



Iron Man 2 2010 (1080p Bluray x265 10bit Tigole) .mkv



Iron Man 3 2013 (1080p Bluray x265 10bit Tigole) .mkv



Logan 2017 (1080p Bluray HEVC 10bit AAC Tigole) .mkv





Thor 2011 (1080p Bluray x265 10bit Tigole).mkv



Thor - The Dark World 2013 (1080p Bluray x265 10bit Tigole).mkv



Thor Ragnarok 2017 (2160p Bluray HDR x265 10bit Tigole).mkv


















































May 27, 2018, 03:26:10 PM
Reply #2
  • Devoted Member
  • **
  • Thank You: 66
  • Reputation: 13
  • Activity:
    0.6%
  • Country: in
  • Posts: 120
  • Topics: 28
  • Join Date: Jun 2012
  • ShareSpark Member

May 27, 2018, 06:57:55 PM
Reply #3
Quote
Oye Harry Potter 2160p HINDi karna thik hai :rep:

Harry Potter and the Sorcerers Stone (2001) Theatrical Cut (2160p Bluray x265 HEVC 10bit AAC 7.1 Joy)[UTR] .mkv



Harry Potter 1-8 (1080p Bluray x265 HEVC 10bit AAC 5.1 Tigole) .mkv


May 27, 2018, 07:41:39 PM
Reply #4


ÐÇ ÇÓMÍÇ'S MÓVÍÉS

Batman Begins 2005 1080p BluRay x265 10bit AAC 5.1-Tigole[UTR].mkv



The Dark Knight 2008 1080p BluRay x265 10bit AAC 5.1-Tigole[UTR].mkv



The Dark Knight Rises 2012 1080p BluRay x265 10bit AAC 5.1-Tigole[UTR].mkv



Batman v Superman - Dawn of Justice 2016 Extended (1080p x265 10bit Tigole).mkv



Justice League (2017) (2160p BluRay x265 HEVC 10bit HDR AAC 7.1 Tigole).mkv



Man of Steel 2013 (1080p Bluray x265 HEVC 10bit AAC 5.1 Tigole).mkv



Wonder Woman (2017) (2160p BluRay x265 HEVC 10bit HDR AAC 7.1 Joy).mkv












May 28, 2018, 10:36:53 AM
Reply #5
sorry my mistake

The Adventures of Tintin 2011 1080p BluRay x265 10bit AAC 5.1-Tigole[UTR] (2.18 GB)




May 30, 2018, 10:46:29 AM
Reply #6
Shrék Móvíés çólléçtíóñ

Shrek 2001 (1080p Bluray x265 HEVC 10bit AAC 7.1 Tigole) (1.88 GB)



Shrek 2 2004 (1080p Bluray x265 HEVC 10bit AAC 7.1 Tigole) (1.95 GB)



Shrek the Third 2007 (1080p Bluray x265 HEVC 10bit AAC 5.1 Tigole) (1.86 GB)



Shrek Forever After 2010 (1080p Bluray x265 HEVC 10bit AAC 7.1 Tigole) (1.94 GB)



May 30, 2018, 09:16:40 PM
Reply #7


Insidious.The.Last.Key.(2018).720p.BDRip.Multi.Language.Org.DD.{Hindi+Tamil+Telugu.6Ch}.Mann987™



Org DVD Hindi 5.1 448kbps

Thankx Rainbow™

June 02, 2018, 02:42:58 PM
Reply #8
  • Devoted Member
  • **
  • Thank You: 0
  • Reputation: 1
  • Activity:
    0.8%
  • Country: in
  • Posts: 101
  • Topics: 0
  • Join Date: Jan 2014
  • ShareSpark Member
:please: Upload Tomb Raider (2018) 1080P 10bit Tigole Rip in GD/Uptobox/Userclud :race:

June 06, 2018, 03:20:42 PM
Reply #9
Cars 3 (2017) 720p BDRip DUAL [HINDI-ENGLISH] DD5.1 ~ MADNiCK



Org Bluray DD [email protected]640Kbps
TNX GPSOFT

General
Unique ID                   : 232608820164679558651914771195638178657 (0xAEFED4470000B16DAE196D93D9D1E361)
Complete name               : Cars 3 (2017) 720p BluRay Hindi DD 5.1Ch - Eng DD 5.1Ch Org ~ MADNiCK™.mkv
Format                      : Matroska
Format version              : Version 4 / Version 2
File size                   : 1.08 GiB
Duration                    : 1 h 42 min
Overall bit rate            : 1 504 kb/s
Movie name                  : MADNiCK™
Encoded date                : UTC 2018-06-06 05:40:00
Writing application         : mkvmerge v8.6.1 ('Flying') 32bit
Writing library             : libebml v1.3.3 + libmatroska v1.4.4

Video
ID                          : 1
Format                      : HEVC
Format/Info                 : High Efficiency Video Coding
Format profile              : [email protected]@Main
Codec ID                    : V_MPEGH/ISO/HEVC
Duration                    : 1 h 42 min
Bit rate                    : 789 kb/s
Width                       : 1 280 pixels
Height                      : 536 pixels
Display aspect ratio        : 2.40:1
Frame rate mode             : Constant
Frame rate                  : 23.976 (24000/1001) FPS
Color space                 : YUV
Chroma subsampling          : 4:2:0
Bit depth                   : 8 bits
Bits/(Pixel*Frame)          : 0.048
Stream size                 : 578 MiB (52%)
Title                       : Cars 3 (2017) 720p BluRay Hindi DD 5.1Ch - Eng DD 5.1Ch Org ~ MADNiCK™
Writing library             : x265 2.5+6-d11482e5fedb:[Windows][GCC 7.1.0][64 bit] 8bit+10bit+12bit
Language                    : English
Default                     : Yes
Forced                      : No
Color range                 : Limited
Color primaries             : BT.709
Matrix coefficients         : BT.709

Audio #1
ID                          : 2
Format                      : AC-3
Format/Info                 : Audio Coding 3
Codec ID                    : A_AC3
Duration                    : 1 h 42 min
Bit rate mode               : Constant
Bit rate                    : 640 kb/s
Channel(s)                  : 6 channels
Channel positions           : Front: L C R, Side: L R, LFE
Sampling rate               : 48.0 kHz
Frame rate                  : 31.250 FPS (1536 SPF)
Bit depth                   : 16 bits
Compression mode            : Lossy
Stream size                 : 469 MiB (43%)
Title                       : MADNiCK™
Language                    : Hindi
Service kind                : Complete Main
Default                     : Yes
Forced                      : No

Audio #2
ID                          : 3
Format                      : AAC
Format/Info                 : Advanced Audio Codec
Format profile              : HE-AAC / LC
Format settings             : Explicit
Codec ID                    : A_AAC-2
Duration                    : 1 h 42 min
Bit rate                    : 55.0 kb/s
Channel(s)                  : 2 channels
Channel positions           : Front: L R
Sampling rate               : 48.0 kHz / 24.0 kHz
Frame rate                  : 23.438 FPS (1024 SPF)
Compression mode            : Lossy
Delay relative to video     : 31 ms
Stream size                 : 40.3 MiB (4%)
Title                       : MADNiCK™
Language                    : English
Default                     : No
Forced                      : No

Text #1
ID                          : 4
Format                      : PGS
Muxing mode                 : zlib
Codec ID                    : S_HDMV/PGS
Codec ID/Info               : Picture based subtitle format used on BDs/HD-DVDs
Duration                    : 1 h 41 min
Bit rate                    : 54 b/s
Count of elements           : 70
Stream size                 : 40.3 KiB (0%)
Title                       : MADNiCK™
Language                    : Hindi
Default                     : Yes
Forced                      : No

Text #2
ID                          : 5
Format                      : PGS
Muxing mode                 : zlib
Codec ID                    : S_HDMV/PGS
Codec ID/Info               : Picture based subtitle format used on BDs/HD-DVDs
Duration                    : 1 h 40 min
Bit rate                    : 18.3 kb/s
Count of elements           : 3860
Stream size                 : 13.2 MiB (1%)
Title                       : MADNiCK™
Language                    : English
Default                     : No
Forced                      : No

Menu
00:00:00.000                : en:Champ McQueen
00:04:57.255                : en:Storm Front
00:10:54.988                : en:Crash
00:13:59.422                : en:Wake-up Call
00:18:15.344                : en:Phone Call
00:21:07.641                : en:Modern Training
00:34:08.880                : en:Deal
00:37:52.103                : en:Beach
00:42:44.812                : en:Crazy Eight
00:49:44.398                : en:Cruz's Dream
00:53:57.734                : en:Facetime
00:58:17.702                : en:Olive Branch
00:59:27.522                : en:Smokey
01:02:15.940                : en:Hud's Win
01:06:35.533                : en:It's Over
01:08:33.109                : en:Old School Training
01:15:48.126                : en:Florida Arrival
01:20:57.852                : en:Pit Stop
01:29:42.418                : en:Victory Lane
01:32:17.031                : en:Epilogue
01:34:00.092                : en:End Credits











Enjoy The Movie


June 07, 2018, 03:51:08 PM
Reply #10
  • Hero Member
  • ***
  • Thank You: 46
  • Reputation: 11
  • Activity:
    4.2%
  • Country: pk
  • Posts: 386
  • Topics: 107
  • Join Date: Sep 2014
  • ShareSpark Member
upload game of thrones season 7 in gdrive

June 07, 2018, 07:31:24 PM
Reply #11
Quote
upload game of thrones season 7 in gdrive

General 
Format : Matroska
Format version : Version 4 / Version 2
File size : 1.63 GiB
Duration : 58 min 40 s
Overall bit rate : 3 975 kb/s
Encoded date : UTC 2017-12-05 11:29:30
Writing application : mkvmerge v14.0.0 ('Flow') 64bit
Writing library : libebml v1.3.4 + libmatroska v1.4.5

Video
ID : 1
Format : HEVC
Format/Info : High Efficiency Video Coding
Format profile : Main [email protected]@Main
Codec ID : V_MPEGH/ISO/HEVC
Duration : 58 min 40 s
Bit rate : 3 353 kb/s
Width : 1 920 pixels
Height : 1 080 pixels
Display aspect ratio : 16:9
Frame rate mode : Constant
Frame rate : 23.976 (24000/1001) FPS
Color space : YUV
Chroma subsampling : 4:2:0
Bit depth : 10 bits
Bits/(Pixel*Frame) : 0.067
Stream size : 1.37 GiB (84%)
Writing library : x265 2.5+66-dae558b40d99:[Windows][GCC 7.2.0][64 bit] 10bit
Encoding settings : cpuid=1173503 / frame-threads=3 / numa-pools=8 / wpp / no-pmode / no-pme / no-psnr / no-ssim / log-level=2 / input-csp=1 / input-res=1920x1080 / interlace=0 / total-frames=84400 / level-idc=0 / high-tier=1 / uhd-bd=0 / ref=4 / no-allow-non-conformance / no-repeat-headers / annexb / no-aud / no-hrd / info / hash=0 / no-temporal-layers / open-gop / min-keyint=23 / keyint=250 / bframes=4 / b-adapt=2 / b-pyramid / bframe-bias=0 / rc-lookahead=25 / lookahead-slices=4 / scenecut=40 / no-intra-refresh / ctu=64 / min-cu-size=8 / rect / no-amp / max-tu-size=32 / tu-inter-depth=1 / tu-intra-depth=1 / limit-tu=0 / rdoq-level=2 / dynamic-rd=0.00 / no-ssim-rd / signhide / no-tskip / nr-intra=0 / nr-inter=0 / no-constrained-intra / strong-intra-smoothing / max-merge=3 / limit-refs=3 / limit-modes / me=3 / subme=3 / merange=57 / temporal-mvp / weightp / no-weightb / no-analyze-src-pics / deblock=0:0 / sao / no-sao-non-deblock / rd=4 / no-early-skip / rskip / no-fast-intra / no-tskip-fast / no-cu-lossless / no-b-intra / no-splitrd-skip / rdpenalty=0 / psy-rd=2.00 / psy-rdoq=1.00 / no-rd-refine / analysis-reuse-mode=0 / no-lossless / cbqpoffs=0 / crqpoffs=0 / rc=abr / bitrate=3350 / qcomp=0.60 / qpstep=4 / stats-write=0 / stats-read=2 / cplxblur=20.0 / qblur=0.5 / ipratio=1.40 / pbratio=1.30 / aq-mode=3 / aq-strength=1.00 / cutree / zone-count=0 / no-strict-cbr / qg-size=32 / no-rc-grain / qpmax=69 / qpmin=0 / no-const-vbv / sar=0 / overscan=0 / videoformat=5 / range=0 / colorprim=2 / transfer=2 / colormatrix=2 / chromaloc=0 / display-window=0 / max-cll=0,0 / min-luma=0 / max-luma=1023 / log2-max-poc-lsb=8 / vui-timing-info / vui-hrd-info / slices=1 / no-opt-qp-pps / no-opt-ref-list-length-pps / no-multi-pass-opt-rps / scenecut-bias=0.05 / no-opt-cu-delta-qp / no-aq-motion / no-hdr / no-hdr-opt / no-dhdr10-opt / analysis-reuse-level=5 / scale-factor=0 / refine-intra=0 / refine-inter=0 / refine-mv=0 / no-limit-sao / ctu-info=0 / no-lowpass-dct / refine-mv-type=0 / copy-pic=1
Default : Yes
Forced : No

Audio #1
ID : 2
Format : AAC
Format/Info : Advanced Audio Codec
Format profile : LC
Codec ID : A_AAC
Duration : 58 min 40 s
Bit rate : 503 kb/s
Channel(s) : 8 channels
Channel positions : Front: L C R, Side: 4, LFE
Sampling rate : 48.0 kHz
Frame rate : 46.875 FPS (1024 spf)
Compression mode : Lossy
Delay relative to video : 20 ms
Stream size : 211 MiB (13%)
Language : English
Default : Yes
Forced : No

Audio #2
ID : 3
Format : AAC
Format/Info : Advanced Audio Codec
Format profile : HE-AAC / LC
Codec ID : A_AAC
Duration : 58 min 40 s
Bit rate : 66.2 kb/s
Channel(s) : 2 channels
Channel positions : Front: L R
Sampling rate : 48.0 kHz / 24.0 kHz
Frame rate : 23.438 FPS (1024 spf)
Compression mode : Lossy
Delay relative to video : 40 ms
Stream size : 27.8 MiB (2%)
Title : Commentary
Language : English
Default : No
Forced : No

Text #1
ID : 4
Format : VobSub
Muxing mode : zlib
Codec ID : S_VOBSUB
Codec ID/Info : Picture based subtitle format used on DVDs
Duration : 57 min 10 s
Bit rate : 9 892 b/s
Count of elements : 727
Stream size : 4.05 MiB (0%)
Language : English
Default : No
Forced : No

Text #2
ID : 5
Format : VobSub
Muxing mode : zlib
Codec ID : S_VOBSUB
Codec ID/Info : Picture based subtitle format used on DVDs
Duration : 56 min 47 s
Bit rate : 6 380 b/s
Count of elements : 648
Stream size : 2.59 MiB (0%)
Language : Danish
Default : No
Forced : No

Text #3
ID : 6
Format : VobSub
Muxing mode : zlib
Codec ID : S_VOBSUB
Codec ID/Info : Picture based subtitle format used on DVDs
Duration : 56 min 47 s
Bit rate : 8 247 b/s
Count of elements : 635
Stream size : 3.35 MiB (0%)
Language : Dutch
Default : No
Forced : No

Text #4
ID : 7
Format : VobSub
Muxing mode : zlib
Codec ID : S_VOBSUB
Codec ID/Info : Picture based subtitle format used on DVDs
Duration : 56 min 47 s
Bit rate : 7 532 b/s
Count of elements : 648
Stream size : 3.06 MiB (0%)
Language : Finnish
Default : No
Forced : No

Text #5
ID : 8
Format : VobSub
Muxing mode : zlib
Codec ID : S_VOBSUB
Codec ID/Info : Picture based subtitle format used on DVDs
Duration : 58 min 3 s
Bit rate : 7 345 b/s
Count of elements : 622
Stream size : 3.05 MiB (0%)
Language : French
Default : No
Forced : No

Text #6
ID : 9
Format : VobSub
Muxing mode : zlib
Codec ID : S_VOBSUB
Codec ID/Info : Picture based subtitle format used on DVDs
Duration : 56 min 47 s
Bit rate : 8 964 b/s
Count of elements : 528
Stream size : 3.64 MiB (0%)
Language : German
Default : No
Forced : No

Text #7
ID : 10
Format : VobSub
Muxing mode : zlib
Codec ID : S_VOBSUB
Codec ID/Info : Picture based subtitle format used on DVDs
Duration : 17 min 33 s
Bit rate : 608 b/s
Count of elements : 15
Stream size : 78.2 KiB (0%)
Title : Forced
Language : German
Default : No
Forced : No

Text #8
ID : 11
Format : VobSub
Muxing mode : zlib
Codec ID : S_VOBSUB
Codec ID/Info : Picture based subtitle format used on DVDs
Duration : 56 min 47 s
Bit rate : 8 026 b/s
Count of elements : 648
Stream size : 3.26 MiB (0%)
Language : Norwegian Bokmal
Default : No
Forced : No

Text #9
ID : 12
Format : VobSub
Muxing mode : zlib
Codec ID : S_VOBSUB
Codec ID/Info : Picture based subtitle format used on DVDs
Duration : 56 min 47 s
Bit rate : 8 865 b/s
Count of elements : 646
Stream size : 3.60 MiB (0%)
Language : Portuguese
Default : No
Forced : No

Text #10
ID : 13
Format : VobSub
Muxing mode : zlib
Codec ID : S_VOBSUB
Codec ID/Info : Picture based subtitle format used on DVDs
Duration : 56 min 47 s
Bit rate : 8 762 b/s
Count of elements : 647
Stream size : 3.56 MiB (0%)
Language : Spanish
Default : No
Forced : No

Text #11
ID : 14
Format : VobSub
Muxing mode : zlib
Codec ID : S_VOBSUB
Codec ID/Info : Picture based subtitle format used on DVDs
Duration : 56 min 47 s
Bit rate : 8 275 b/s
Count of elements : 648
Stream size : 3.36 MiB (0%)
Language : Swedish
Default : No
Forced : No

Menu
00:00:00.000 : en:Chapter 01
00:05:47.680 : en:Chapter 02
00:17:05.357 : en:Chapter 03
00:26:41.099 : en:Chapter 04
00:35:42.765 : en:Chapter 05
00:46:41.840 : en:Chapter 06
00:51:45.477 : en:Chapter 07
00:57:20.061 : en:Chapter 08


August 13, 2018, 08:23:07 PM
Reply #12


Maze Runner The Death Cure 2018 1080p BluRay Hindi DD 5.1Ch - Eng DD 5.1Ch Org ~ THUNDER

**************************************************************************************




**************************************************************************************



*********************************************************************************************
Maze Runner The Death Cure 2018 1080p BluRay Hindi DD 5.1Ch - Eng DD 5.1Ch Org ~ THUNDER
*********************************************************************************************


:GENERAL INFO:



Format : Matroska

Format version : Version 4 / Version 2

File size : 2.32 GiB

Duration : 2h 17mn

Overall bit rate :  5 198 Kbps

Movie name : Maze Runner The Death Cure 2018 1080p BluRay Hindi DD 5.1Ch - Eng DD 5.1Ch Org ~ THUNDER





*************************************************************************************





:VIDEO INFO:

ID : 1

Format : HEVC

Format/Info : High Efficiency Video Coding

Format profile : [email protected]
/* */

Format settings, CABAC : Yes

Format settings, ReFrames : 4 frames

Codec ID : V_MPEGH/ISO/AVC

Duration : 2h 23mn

Bit rate : 4 096 kbps

Width : 1 920 pixels

Height : 800 pixels

Display aspect ratio : 16:9

Frame rate mode : Constant

Frame rate : 23.976 fps

Color space : YUV

Chroma subsampling : 4:2:0

Bit depth : 8 bits

Scan type : Progressive

Bits/(Pixel*Frame) : 0.070

Stream size : 4.12 GiB

Writing library : x264 core 129 r2245 bc13772

Duration : 2h 23mn

Title : Maze Runner The Death Cure 2018 1080p BluRay Hindi DD 5.1Ch - Eng DD 5.1Ch Org ~ THUNDER

Language : English

Default : Yes

Forced : No





*************************************************************************************





:AUDIO 1:

ID : 2

Format : AC-3

Format/Info : Audio Coding 3

Mode extension : CM (complete main)

Format settings, Endianness : Big

Codec ID : A_AC3

Duration : 2h 23mn

Bit rate mode : Constant

Bit rate : 640 Kbps

Channel(s) : 6 channels

Channel positions : Front: L C R, Side: L R, LFE

Sampling rate : 48.0 KHz

Bit depth : 16 bits

Compression mode : Lossy

Stream size : 659 MiB

Title : RiPPER ~L3GION ~ORG DOLBY DIGITAL [email protected]~

Language : English

Default : Yes

Forced : No





*************************************************************************************



:AUDIO 2:

ID : 3

Format : AC-3

Format/Info : Audio Coding 3

Mode extension : CM (complete main)

Format settings, Endianness : Big

Codec ID : A_AC3

Duration : 2h 23mn

Bit rate mode : Constant

Bit rate : 448 Kbps

Channel(s) : 6 channels

Channel positions : Front: L C R, Side: L R

Sampling rate : 48.0 KHz

Bit depth : 16 bits

Compression mode : Lossy

Stream size : 483 MiB 

Title : RiPPER ~L3GION ~ORG DOLBY DIGITAL [email protected]~

Language : Hindi

Default : No

Forced : No







*************************************************************************************



:SUBTITLE:

Text #1

ID : 4

Format : PGS

Muxing mode : zlib

Codec ID : S_HDMV/PGS

Codec ID/Info : The same subtitle format used on BDs/HD-DVDs

Title : LEGION ~Presentation Graphics Subtitle~

Language : Hindi

Default : No

Forced : No




Text #2

ID : 5

Format : PGS

Muxing mode : zlib

Codec ID : S_HDMV/PGS

Codec ID/Info : The same subtitle format used on BDs/HD-DVDs

Title : LEGION ~Presentation Graphics Subtitle~

Language : English

Default : No

Forced : No




*************************************************************************************








*************************************************************************************




For More Join Us On Facebook





:::DON'T FORGET TO SAY THANKS:::



:::SEED FROM HIGH SPEED SEEDBOX:::


 

Related Topics





Back to top