+ ShareSpark.net »  :::: Dubbed Zone (Dubbed English in Hindi) » English Movies Dubbed in Hindi » High Resolution Movies
|- Crank (2006-2009) Duology 1080p BluRay x264 [Dual Audio] {Hind-English} ESubs By~Hammer~


Mastercard 10% Off

Crank (2006-2009) Duology 1080p BluRay x264 [Dual Audio] {Hind-English} ESubs By~Hammer~

0 Members and 1 Guest are viewing this topic.

June 26, 2018, 12:27:20 PM
  • Global Moderator
  • Legend Member
  • *****
  • Topic Author
  • Thank You: 10721
  • Reputation: 2163
  • Activity:
    100%
  • Country: in
  • Posts: 5350
  • Topics: 4419
  • Join Date: Jan 2014
  • ıllıllı ѕмoĸιng ιѕ good ғor нealтн ıllıllı :)




Crank (2006-2009) Duology 1080p BluRay x264 [Dual Audio] {Hind-English} ESubs By~Hammer~


Crank (2006) 1080p BluRay x264 {Dual Audio} [Hindi DD 2.0 English DD 5.1] ESubs By~Hammer~


Quote

Format                                   : Matroska
Format version                           : Version 4 / Version 2
File size                                : 5.05 GiB
Duration                                 : 1 h 34 min
Overall bit rate                         : 7 675 kb/s
Movie name                               : Crank (2006) 1080p BluRay x264 {Dual Audio} [Hindi DD 2.0 English DD 5.1] ESubs By~Hammer~
Bit rate                                 : 7 000 kb/s
Width                                    : 1 920 pixels
Height                                   : 1 040 pixels
Display aspect ratio                     : 1.85:1
Frame rate mode                          : Constant
Frame rate                               : 23.976 (24000/1001) FPS
Title                                    : By~Hammer~
Language                                 : English


Audio #1
Format                                   : AC-3
Format/Info                              : Audio Coding 3
Codec ID                                 : A_AC3
Duration                                 : 1 h 34 min
Bit rate mode                            : Constant
Bit rate                                 : 224 kb/s
Channel(s)                               : 2 channels
Channel positions                        : Front: L R
Sampling rate                            : 48.0 kHz
Frame rate                               : 31.250 FPS (1536 SPF)
Bit depth                                : 16 bits
Compression mode                         : Lossy
Stream size                              : 151 MiB (3%)
Title                                    : Hindi DD 2.0 @224 kbps By~Hammer~
Language                                 : Hindi
Default                                  : Yes
Forced                                   : Yes

Audio #2
Format                                   : AC-3
Format/Info                              : Audio Coding 3
Codec ID                                 : A_AC3
Duration                                 : 1 h 34 min
Bit rate mode                            : Constant
Bit rate                                 : 448 kb/s
Channel(s)                               : 6 channels
Channel positions                        : Front: L C R, Side: L R, LFE
Sampling rate                            : 48.0 kHz
Frame rate                               : 31.250 FPS (1536 SPF)
Bit depth                                : 16 bits
Compression mode                         : Lossy
Stream size                              : 302 MiB (6%)
Title                                    : Eng Org DD 5.1 @448 kbps By~Hammer~
Language                                 : English
Default                                  : No
Forced                                   : No

Text
ID                                       : 4
Format                                   : UTF-8
Codec ID                                 : S_TEXT/UTF8
Codec ID/Info                            : UTF-8 Plain Text
Duration                                 : 1 h 25 min
Bit rate                                 : 46 b/s
Count of elements                        : 812
Stream size                              : 29.3 KiB (0%)
Title                                    : Eng PGS
Language                                 : English
Default                                  : No
Forced                                   : No




Crank High Voltage (2009) 1080p BluRay x264 {Dual Audio} [Hindi Org DD 5.1]  English DD 5.1] ESubs By~Hammer~

Quote
Format                                   : Matroska
Format version                           : Version 4 / Version 2
File size                                : 5.29 GiB
Duration                                 : 1 h 35 min
Overall bit rate                         : 7 898 kb/s
Movie name                               : Crank High Voltage (2009) 1080p BluRay x264 {Dual Audio} [Hindi Org DD 5.1 English DD 5.1] ESubs By~Hammer~
Bit rate                                 : 7 000 kb/s
Width                                    : 1 920 pixels
Height                                   : 1 040 pixels
Display aspect ratio                     : 1.85:1
Frame rate mode                          : Constant
Frame rate                               : 23.976 (24000/1001) FPS
Title                                    : By~Hammer~
Language                                 : English


Audio #1
Format                                   : AC-3
Format/Info                              : Audio Coding 3
Codec ID                                 : A_AC3
Duration                                 : 1 h 35 min
Bit rate mode                            : Constant
Bit rate                                 : 448 kb/s
Channel(s)                               : 6 channels
Channel positions                        : Front: L C R, Side: L R, LFE
Sampling rate                            : 48.0 kHz
Frame rate                               : 31.250 FPS (1536 SPF)
Bit depth                                : 16 bits
Compression mode                         : Lossy
Delay relative to video                  : 4 ms
Stream size                              : 307 MiB (6%)
Title                                    : Hindi Org DD 5.1 @448 kbps By~Hammer~
Language                                 : Hindi
Default                                  : Yes
Forced                                   : Yes

Audio #2
Format                                   : AC-3
Format/Info                              : Audio Coding 3
Codec ID                                 : A_AC3
Duration                                 : 1 h 35 min
Bit rate mode                            : Constant
Bit rate                                 : 448 kb/s
Channel(s)                               : 6 channels
Channel positions                        : Front: L C R, Side: L R, LFE
Sampling rate                            : 48.0 kHz
Frame rate                               : 31.250 FPS (1536 SPF)
Bit depth                                : 16 bits
Compression mode                         : Lossy
Stream size                              : 307 MiB (6%)
Title                                    : Eng Org DD 5.1 @448 kbps By~Hammer~
Language                                 : English
Default                                  : No
Forced                                   : No

Text
ID                                       : 4
Format                                   : UTF-8
Codec ID                                 : S_TEXT/UTF8
Codec ID/Info                            : UTF-8 Plain Text
Duration                                 : 1 h 33 min
Bit rate                                 : 40 b/s
Count of elements                        : 887
Stream size                              : 27.8 KiB (0%)
Title                                    : Eng PGS
Language                                 : English
Default                                  : No
Forced                                   : No





:download:

Quote


File Leeched & Uploaded From




Don't walk as you are king, walk as you don't care who the king is....!!
Never argue with an idiot. They drag you down to their level and then beat you with experience?

Share this topic on FacebookShare this topic on GoogleShare this topic on MySpaceShare this topic on TwitterShare this topic on Yahoo

« Last Edit: August 05, 2018, 03:00:40 AM by Rάήνίјάч1234 »



Don't walk as you are king, walk as you don't care who the king is....!!

June 26, 2018, 01:14:24 PM
Reply #1
  • Semi Newbie
  • **
  • Thank You: 0
  • Reputation: -2
  • Activity:
    0%
  • Country: in
  • Posts: 39
  • Topics: 0
  • Join Date: Jun 2018
  • ShareSpark Member
Rάήνίјάч1234 bhai apne Thor, Guardians of galaxy, Captain America ke collection upload kiye h an bs IRONMAN or AVENGERS ke collection bache h plz 1080p bluray Hindi size 5 GB tak G drive me available kra do

June 26, 2018, 01:24:18 PM
Reply #2
  • Semi Newbie
  • **
  • Thank You: 0
  • Reputation: -2
  • Activity:
    0%
  • Country: in
  • Posts: 39
  • Topics: 0
  • Join Date: Jun 2018
  • ShareSpark Member
Reply sir that you will upload them and thanks for before's contribute :thank: :thank: :thank: :thank: :thank: :thank: :thank: :thank: :thank: :thank: :thank: :thank: :thank: :thank: :thank: :thank: :thank: :thank:

June 26, 2018, 04:54:33 PM
Reply #3
  • Elite Moderator
  • Legend Member
  • ****
  • Thank You: 2000
  • Reputation: 286
  • Activity:
    1.2%
  • Country: in
  • Posts: 3722
  • Topics: 2854
  • Join Date: Sep 2016
  • (: EnJOy D LiFe :)

June 29, 2018, 12:54:06 AM
Reply #4
  • Newbie
  • **
  • Thank You: 0
  • Reputation: 0
  • Activity:
    0%
  • Country: pk
  • Posts: 1
  • Topics: 0
  • Join Date: Dec 2017
  • ShareSpark Member

August 04, 2018, 07:43:58 PM
Reply #5
  • Devoted Member
  • **
  • Thank You: 16
  • Reputation: -12
  • Activity:
    0.6%
  • Posts: 160
  • Topics: 9
  • Join Date: Dec 2012
  • ShareSpark Member

Tags:
 

Related Topics





Back to top