+ ShareSpark.net »  :::: Dubbed Zone (Dubbed English in Hindi) » English Movies Dubbed in Hindi » High Resolution Movies
|- The Darkest Minds (2018) 1080p BluRay x264 Dual Audio [Hindi DD5.1 - English DD5.1] - Hindi PGS ~ Ra


Mastercard 10% Off
  • The Darkest Minds (2018) 1080p BluRay x264 Dual Audio [Hindi DD5.1 - English DD5.1] - Hindi PGS ~ Ra 5 1
Currently:  

The Darkest Minds (2018) 1080p BluRay x264 Dual Audio [Hindi DD5.1 - English DD5.1] - Hindi PGS ~ Ra

0 Members and 1 Guest are viewing this topic.

October 20, 2018, 11:03:47 PM
  • Global Moderator
  • Legend Member
  • *****
  • Topic Author
  • Thank You: 10753
  • Reputation: 2171
  • Activity:
    100%
  • Country: in
  • Posts: 5355
  • Topics: 4423
  • Join Date: Jan 2014
  • ıllıllı ѕмoĸιng ιѕ good ғor нealтн ıllıllı :)




The Darkest Minds (2018) 1080p BluRay x264 Dual Audio [Hindi DD5.1 - English DD5.1] - Hindi PGS ~ Ranvijay

Thanks To Invincible For Hindi Audio

Buy RDP Online




Quote

Format                                   : Matroska
Format version                           : Version 4 / Version 2
File size                                : 4.29 GiB
Duration                                 : 1 h 43 min
Overall bit rate                         : 5 918 kb/s
Movie name                               : The Darkest Minds (2018) 1080p BluRay x264 Dual Audio [Hindi DD5.1 - English DD5.1] - Hindi PGS ~ Ranvijay

Video
ID                                       : 1
Format                                   : AVC
Format/Info                              : Advanced Video Codec
Duration                                 : 1 h 43 min
Bit rate                                 : 5 000 kb/s
Width                                    : 1 920 pixels
Height                                   : 816 pixels
Display aspect ratio                     : 2.35:1
Frame rate mode                          : Constant
Frame rate                               : 23.976 (24000/1001) FPS
Color space                              : YUV
Chroma subsampling                       : 4:2:0
Bit depth                                : 8 bits
Scan type                                : Progressive
Bits/(Pixel*Frame)                       : 0.133
Stream size                              : 3.62 GiB (84%)
Title                                    : ~Ranvijay~

Audio #1
ID                                       : 2
Format                                   : AC-3
Format/Info                              : Audio Coding 3
Codec ID                                 : A_AC3
Duration                                 : 1 h 43 min
Bit rate mode                            : Constant
Bit rate                                 : 448 kb/s
Channel(s)                               : 6 channels
Channel positions                        : Front: L C R, Side: L R, LFE
Sampling rate                            : 48.0 kHz
Frame rate                               : 31.250 FPS (1536 SPF)
Bit depth                                : 16 bits
Compression mode                         : Lossy
Stream size                              : 333 MiB (8%)
Title                                    : ~Ranvijay~
Language                                 : Hindi
Service kind                             : Complete Main
Default                                  : Yes
Forced                                   : Yes

Audio #2
ID                                       : 3
Format                                   : AC-3
Format/Info                              : Audio Coding 3
Codec ID                                 : A_AC3
Duration                                 : 1 h 43 min
Bit rate mode                            : Constant
Bit rate                                 : 448 kb/s
Channel(s)                               : 6 channels
Channel positions                        : Front: L C R, Side: L R, LFE
Sampling rate                            : 48.0 kHz
Frame rate                               : 31.250 FPS (1536 SPF)
Bit depth                                : 16 bits
Compression mode                         : Lossy
Stream size                              : 333 MiB (8%)
Title                                    : ~Ranvijay~
Language                                 : English
Service kind                             : Complete Main
Default                                  : No
Forced                                   : No

Text
ID                                       : 4
Format                                   : PGS
Muxing mode                              : zlib
Codec ID                                 : S_HDMV/PGS
Codec ID/Info                            : Picture based subtitle format used on BDs/HD-DVDs
Duration                                 : 1 h 42 min
Bit rate                                 : 45.5 kb/s
Count of elements                        : 2574
Stream size                              : 33.4 MiB (1%)
Title                                    : ~Ranvijay~
Language                                 : Hindi
Default                                  : Yes
Forced                                   : Yes














:download:

Quote


File Leeched & Uploaded From




Don't walk as you are king, walk as you don't care who the king is....!!
Never argue with an idiot. They drag you down to their level and then beat you with experience?

Share this topic on FacebookShare this topic on GoogleShare this topic on MySpaceShare this topic on TwitterShare this topic on Yahoo




Don't walk as you are king, walk as you don't care who the king is....!!

Thanks given by:


October 21, 2018, 04:29:46 PM
Reply #1
  • Semi Newbie
  • **
  • Thank You: 0
  • Reputation: 0
  • Activity:
    0.6%
  • Posts: 16
  • Topics: 0
  • Join Date: Jul 2012
  • ShareSpark Member
Kindly upload more link. Is link par kota khatm ho gya hai bhai ...

October 21, 2018, 04:29:46 PM
Reply #2
  • Semi Newbie
  • **
  • Thank You: 0
  • Reputation: 0
  • Activity:
    0.6%
  • Posts: 16
  • Topics: 0
  • Join Date: Jul 2012
  • ShareSpark Member
Kindly upload more link. Is link par kota khatm ho gya hai bhai ...

Tags:
 

Related Topics





Back to top