+ ShareSpark.net »  :::: Dubbed Zone (Dubbed English in Hindi) » English Movies Dubbed in Hindi » High Resolution Movies
|- G.I JOE Duology (2009 - 2013) 1080p BluRay x264 Dual Audio [Hindi DDP5.1 - English DDP5.1] - Msubs ~


Samsung Galaxy 8

G.I JOE Duology (2009 - 2013) 1080p BluRay x264 Dual Audio [Hindi DDP5.1 - English DDP5.1] - Msubs ~

0 Members and 1 Guest are viewing this topic.

October 16, 2018, 09:26:17 PM
  • Global Moderator
  • Legend Member
  • *****
  • Topic Author
  • Thank You: 10712
  • Reputation: 2161
  • Activity:
    100%
  • Country: in
  • Posts: 5350
  • Topics: 4419
  • Join Date: Jan 2014
  • ıllıllı ѕмoĸιng ιѕ good ғor нealтн ıllıllı :)


G.I JOE Duology (2009 - 2013) 1080p BluRay x264 Dual Audio [Hindi DDP5.1 - English DDP5.1] - Msubs ~ Ranvijay

Thanks To Titan For Best Hindi Audios

Buy RDP Online





G.I. Joe The Rise of Cobra (2009) 1080p BluRay x264 Dual Audio [Hindi DDP5.1 - English DD5.1] - Esub ~ Ranvijay

Quote
General
Format                                  : Matroska
Format version                          : Version 4 / Version 2
File size                                : 5.02 GiB
Duration                                : 1 h 57 min
Overall bit rate                        : 6 096 kb/s
Movie name                              : G.I. Joe: The Rise of Cobra (2009) 1080p BluRay x264 Dual Audio [Hindi DDP5.1 - English DD5.1] - Esub ~ Ranvijay

Video
ID                                      : 1
Format                                  : AVC
Format/Info                              : Advanced Video Codec
Duration                                : 1 h 57 min
Bit rate                                : 5 000 kb/s
Width                                    : 1 920 pixels
Height                                  : 800 pixels
Display aspect ratio                    : 2.40:1
Frame rate mode                          : Constant
Frame rate                              : 23.976 (24000/1001) FPS
Color space                              : YUV
Chroma subsampling                      : 4:2:0
Bit depth                                : 8 bits
Scan type                                : Progressive
Bits/(Pixel*Frame)                      : 0.136
Stream size                              : 4.12 GiB (82%)
Title                                    : ~Ranvijay~

Audio #1
ID                                      : 2
Format                                  : E-AC-3
Format/Info                              : Enhanced Audio Coding 3
Codec ID                                : A_EAC3
Duration                                : 1 h 57 min
Bit rate mode                            : Constant
Bit rate                                : 640 kb/s
Channel(s)                              : 6 channels
Channel positions                        : Front: L C R, Side: L R, LFE
Sampling rate                            : 48.0 kHz
Frame rate                              : 187.500 FPS (256 SPF)
Compression mode                        : Lossy
Delay relative to video                  : 2 s 200 ms
Stream size                              : 540 MiB (10%)
Title                                    : ~Ranvijay~
Language                                : Hindi
Service kind                            : Complete Main
Default                                  : Yes
Forced                                  : Yes

Audio #2
ID                                      : 3
Format                                  : AC-3
Format/Info                              : Audio Coding 3
Codec ID                                : A_AC3
Duration                                : 1 h 57 min
Bit rate mode                            : Constant
Bit rate                                : 448 kb/s
Channel(s)                              : 6 channels
Channel positions                        : Front: L C R, Side: L R, LFE
Sampling rate                            : 48.0 kHz
Frame rate                              : 31.250 FPS (1536 SPF)
Bit depth                                : 16 bits
Compression mode                        : Lossy
Stream size                              : 378 MiB (7%)
Title                                    : ~Ranvijay~
Language                                : English
Service kind                            : Complete Main
Default                                  : No
Forced                                  : No

Text
ID                                      : 4
Format                                  : PGS
Muxing mode                              : zlib
Codec ID                                : S_HDMV/PGS
Codec ID/Info                            : Picture based subtitle format used on BDs/HD-DVDs
Duration                                : 1 h 47 min
Bit rate                                : 35.2 kb/s
Count of elements                        : 2284
Stream size                              : 27.1 MiB (1%)
Title                                    : ~Ranvijay~
Language                                : English
Default                                  : Yes
Forced                                  : Yes

Menu
00:00:00.000                            : en:00:00:00.000
00:06:07.701                            : en:00:06:07.701
00:13:38.943                            : en:00:13:38.943
00:20:15.005                            : en:00:20:15.005
00:24:18.082                            : en:00:24:18.082
00:28:20.616                            : en:00:28:20.616
00:33:14.576                            : en:00:33:14.576
00:40:58.122                            : en:00:40:58.122
00:47:06.032                            : en:00:47:06.032
00:51:19.034                            : en:00:51:19.034
00:54:17.838                            : en:00:54:17.838
01:00:58.572                            : en:01:00:58.572
01:05:46.401                            : en:01:05:46.401
01:12:48.489                            : en:01:12:48.489
01:18:54.104                            : en:01:18:54.104
01:24:13.298                            : en:01:24:13.298
01:29:21.982                            : en:01:29:21.982
01:38:15.473                            : en:01:38:15.473
01:43:36.419                            : en:01:43:36.419
01:49:06.582                            : en:01:49:06.582















G.I. Joe Retaliation (2013) 1080p BluRay x264 Dual Audio [Hindi DDP5.1 - English DD5.1] - Msubs ~ Ranvijay

Quote
General
Format                                  : Matroska
Format version                          : Version 4 / Version 2
File size                                : 4.70 GiB
Duration                                : 1 h 50 min
Overall bit rate                        : 6 104 kb/s
Movie name                              : G.I. Joe Retaliation (2013) 1080p BluRay x264 Dual Audio [Hindi DDP5.1 - English DD5.1] - Msubs ~ Ranvijay

Video
ID                                      : 1
Format                                  : AVC
Format/Info                              : Advanced Video Codec
Duration                                : 1 h 50 min
Bit rate                                : 5 000 kb/s
Width                                    : 1 920 pixels
Height                                  : 800 pixels
Display aspect ratio                    : 2.40:1
Frame rate mode                          : Constant
Frame rate                              : 23.976 (24000/1001) FPS
Color space                              : YUV
Chroma subsampling                      : 4:2:0
Bit depth                                : 8 bits
Scan type                                : Progressive
Bits/(Pixel*Frame)                      : 0.136
Stream size                              : 3.85 GiB (82%)
Title                                    : ~Ranvijay~

Audio #1
ID                                      : 2
Format                                  : E-AC-3
Format/Info                              : Enhanced Audio Coding 3
Codec ID                                : A_EAC3
Duration                                : 1 h 50 min
Bit rate mode                            : Constant
Bit rate                                : 640 kb/s
Channel(s)                              : 6 channels
Channel positions                        : Front: L C R, Side: L R, LFE
Sampling rate                            : 48.0 kHz
Frame rate                              : 187.500 FPS (256 SPF)
Compression mode                        : Lossy
Stream size                              : 505 MiB (10%)
Title                                    : ~Ranvijay~
Language                                : Hindi
Service kind                            : Complete Main
Default                                  : Yes
Forced                                  : Yes

Audio #2
ID                                      : 3
Format                                  : AC-3
Format/Info                              : Audio Coding 3
Codec ID                                : A_AC3
Duration                                : 1 h 50 min
Bit rate mode                            : Constant
Bit rate                                : 448 kb/s
Channel(s)                              : 6 channels
Channel positions                        : Front: L C R, Side: L R, LFE
Sampling rate                            : 48.0 kHz
Frame rate                              : 31.250 FPS (1536 SPF)
Bit depth                                : 16 bits
Compression mode                        : Lossy
Stream size                              : 353 MiB (7%)
Title                                    : ~Ranvijay~
Language                                : English
Service kind                            : Complete Main
Default                                  : No
Forced                                  : No

Text #1
ID                                      : 4
Format                                  : PGS
Muxing mode                              : zlib
Codec ID                                : S_HDMV/PGS
Codec ID/Info                            : Picture based subtitle format used on BDs/HD-DVDs
Duration                                : 1 h 39 min
Bit rate                                : 9 432 b/s
Count of elements                        : 2316
Stream size                              : 6.72 MiB (0%)
Title                                    : ~Ranvijay~
Language                                : English
Default                                  : Yes
Forced                                  : Yes

Text #2
ID                                      : 5
Format                                  : PGS
Muxing mode                              : zlib
Codec ID                                : S_HDMV/PGS
Codec ID/Info                            : Picture based subtitle format used on BDs/HD-DVDs
Duration                                : 1 h 48 min
Bit rate                                : 7 119 b/s
Count of elements                        : 2352
Stream size                              : 5.55 MiB (0%)
Title                                    : ~Ranvijay~
Language                                : Hindi
Default                                  : No
Forced                                  : No

Menu
00:00:00.000                            : en:00:00:00.000
00:06:08.243                            : en:00:06:08.243
00:12:52.313                            : en:00:12:52.313
00:17:35.471                            : en:00:17:35.471
00:25:37.369                            : en:00:25:37.369
00:30:56.188                            : en:00:30:56.188
00:39:00.880                            : en:00:39:00.880
00:42:40.975                            : en:00:42:40.975
00:48:31.242                            : en:00:48:31.242
00:54:02.990                            : en:00:54:02.990
01:01:46.536                            : en:01:01:46.536
01:07:34.676                            : en:01:07:34.676
01:13:56.807                            : en:01:13:56.807
01:17:54.461                            : en:01:17:54.461
01:23:45.979                            : en:01:23:45.979
01:31:12.759                            : en:01:31:12.759
01:41:13.359                            : en:01:41:13.359














:download:

Quote




File Leeched & Uploaded From




Don't walk as you are king, walk as you don't care who the king is....!!
Never argue with an idiot. They drag you down to their level and then beat you with experience?

Share this topic on FacebookShare this topic on GoogleShare this topic on MySpaceShare this topic on TwitterShare this topic on Yahoo

« Last Edit: October 16, 2018, 09:27:07 PM by Rάήνίјάч1234 »



Don't walk as you are king, walk as you don't care who the king is....!!

Thanks given by:


October 17, 2018, 11:43:30 AM
Reply #1
  • Devoted Member
  • **
  • Thank You: 0
  • Reputation: 7
  • Activity:
    37.2%
  • Country: in
  • Posts: 182
  • Topics: 0
  • Join Date: Sep 2018
  • ShareSpark Member

October 22, 2018, 01:33:50 PM
Reply #2
  • Devoted Member
  • **
  • Thank You: 4
  • Reputation: 1
  • Activity:
    13%
  • Country: pk
  • Posts: 188
  • Topics: 7
  • Join Date: Mar 2013
  • ShareSpark Member

Tags:
 

Related Topics





Back to top